#TITLE:Day After Day (Haru Haru);
#SUBTITLE:;
#ARTIST:Big Bang;
#TITLETRANSLIT:;
#SUBTITLETRANSLIT:;
#ARTISTTRANSLIT:;
#CREDIT:YamiRyou;
#BANNER:banner.png;
#BACKGROUND:bg.jpg;
#LYRICSPATH:;
#CDTITLE:;
#MUSIC:haruharu.mp3;
#OFFSET:-0.100;
#SAMPLESTART:100.000;
#SAMPLELENGTH:12.000;
#SELECTABLE:YES;
#BPMS:0.000=126.006,1.000=126.000,6.000=126.006,7.000=126.000,12.000=126.006,13.000=126.000,18.000=126.006,19.000=126.000,24.000=126.006,25.000=126.000,30.000=126.006,31.000=126.000,36.000=126.006,37.000=126.000,42.000=126.006,43.000=126.000,48.000=126.006,49.000=126.000,54.000=126.006,55.000=126.000,60.000=126.006,61.000=126.000,66.000=126.012,66.500=252.048,67.000=252.000,90.000=252.024,91.000=252.000,114.000=252.024,115.000=252.000,138.000=252.024,139.000=252.000,162.000=252.024,163.000=252.000,186.000=252.024,187.000=252.000,189.500=126.012,190.003=126.000,195.000=126.006,196.000=126.000,201.000=126.006,202.000=126.000,207.000=126.006,208.000=126.000,213.000=126.006,214.000=126.000,219.000=126.006,220.000=126.000,224.000=252.024,225.000=252.000,248.000=252.024,249.000=252.000,272.000=252.024,273.000=252.000,296.000=252.024,297.000=252.000,320.000=252.024,321.000=252.000,344.000=252.024,345.000=252.000,351.000=504.096,352.000=504.000,353.000=126.006,354.000=126.000,359.000=126.006,360.000=126.000,365.000=126.006,366.000=126.000,369.000=252.024,370.000=252.000,393.000=252.024,394.000=252.000,417.000=252.024,418.000=252.000,429.000=126.000,430.500=126.000,431.000=252.048,431.500=252.000,454.500=252.024,455.500=252.000,478.500=252.024,479.500=252.000,486.000=126.012,486.500=126.000,490.500=252.024,491.500=252.000,514.500=252.024,515.500=252.000,538.500=252.024,539.500=252.000,562.500=252.024,563.500=252.000,586.500=252.024,587.500=252.000,610.500=252.024,611.500=252.000,618.000=504.000,619.000=126.000,625.000=126.006,626.000=126.000,631.000=126.006,632.000=126.000,637.000=126.006,638.000=126.000,643.000=126.006,644.000=126.000,649.000=126.006,650.000=126.000,655.000=126.006,656.000=126.000,661.000=126.006,662.000=126.000,667.000=126.006,668.000=126.000,673.000=126.006,674.000=126.000,679.000=126.006,680.000=126.000,681.500=252.048,682.000=252.000,705.000=252.024,706.000=252.000,729.000=252.024,730.000=252.000,753.000=252.024,754.000=252.000,777.000=252.024,778.000=252.000,801.000=252.024,802.000=252.000,812.000=504.000,813.000=126.000,818.500=126.006,819.500=126.000,824.500=126.006,825.500=126.000,830.500=126.006,831.500=126.000,836.500=126.006,837.500=126.000,842.500=126.006,843.000=63.003;
#STOPS:;
#BGCHANGES:;
// cache tags:
#FIRSTBEAT:0.000;
#LASTBEAT:844.500;
#SONGFILENAME:Songs/Music V.I.P ^_^/haruharu/haruharu.sm;
#HASMUSIC:1;
#HASBANNER:1;
#MUSICLENGTH:256.470;
// end cache tags

//---------------dance-single - ----------------
#NOTES:
     dance-single:
     :
     Hard:
     18:
     1.000,1.000,1.000,0.230,0.035,1197.000,695.000,59.000,0.000,278.000:
0001
1000
0001
1000
0102
1010
0100
1013
,
1000
0001
1000
0001
2010
0101
0010
3101
,
0010
0100
0010
0100
0120
0000
1031
0101
,
1000
0001
1000
0101
1000
0001
1000
0101
,
1000
1000
0100
0010
1002
1100
1000
1103
,
0010
0001
0010
0100
2001
0011
0001
3011
,
0100
0010
0100
0010
0210
0000
1301
0010
,
0100
0001
1001
0100
0010
0001
1001
0010
,
0100
1000
0100
0010
0012
1010
0010
1013
,
0001
0100
0001
0100
2100
0101
0100
3101
,
0011
1100
0011
1100
0021
0000
1130
0110
,
0011
0110
1100
0110
0011
0110
1100
0110
,
0101
1010
0101
1010
1201
1001
1010
1301
,
1010
0101
1010
0101
1021
1001
0101
1031
,
0000
0201
0000
1301
1101
0100
0010
0001
,
0010
0100
1000
0100
0010
1001
0000
0110
,
0000
1001
0000
1111
1111
1111
0000
0110
,
0110
0110
0000
1001
0000
0011
1100
0011
,
0000
1001
0000
0110
0000
1001
0000
0011
,
0110
1100
0110
0011
0000
1001
1100
1001
,
0000
1001
0000
0110
0000
1001
0000
0011
,
0010
1010
0000
1001
0101
1001
0101
1001
,
0000
0101
0000
1010
0000
0101
0000
1100
,
0100
0101
0000
0110
0000
1001
1000
1010
,
0000
1011
0000
0010
0000
0101
0000
0010
,
0000
0101
0000
0100
0000
1100
0000
1000
,
0000
1100
0000
1000
0000
1100
0000
0010
,
0000
0101
0000
0010
0000
0101
0000
0001
,
0000
0011
0000
0001
0000
0011
1100
0101
,
0110
1100
0000
1001
0000
1010
1100
1001
,
0000
0110
0000
0010
0000
1001
0000
0100
,
0000
1001
0000
0010
0000
1001
0000
0100
,
0000
1001
0000
0020
0000
1100
0000
1031
,
0100
0011
0000
0010
0000
1001
0010
1100
,
1001
0000
1000
1000
0000
1100
0000
1000
,
0000
1001
0000
0001
0000
0101
0000
0001
,
0000
0011
0000
0001
0000
1001
0000
1000
,
0000
1100
0000
1000
0000
1011
1100
1000
,
1010
1001
0000
0010
0000
1001
0011
1001
,
0000
0110
0000
0010
0000
0110
0000
0010
,
0000
1002
0000
1010
0000
0100
0000
1013
,
0100
0011
0000
1001
0000
1001
1010
0010
,
0110
1001
0000
1100
0110
0011
0000
0100
,
0000
1001
0000
0010
0000
1001
0000
0100
,
0000
1001
0000
0010
0000
1010
0000
1000
,
0000
1100
0000
1000
0000
1011
1010
1100
,
1001
0000
1010
0101
1100
1001
0000
1001
,
0000
0110
0000
2002
0000
3113
0100
0010
,
0001
0010
0100
1000
0100
0010
0001
0010
,
0100
0000
1000
0000
0010
0000
0001
0010
1100
0000
0100
0000
1000
0100
0011
0000
,
0100
0000
0010
0000
0100
0000
0010
0100
1001
0000
0001
0000
0010
0000
0100
0000
,
1000
0100
0010
2001
0010
0100
3012
0100
,
0010
0000
2003
0000
0010
0000
0010
0010
0010
0010
3010
0000
0101
0000
0001
0001
,
1001
0000
1000
0000
1001
0000
1000
1000
1010
0000
1000
0000
1001
0000
0001
0000
,
1101
0000
0001
0000
0011
0000
0001
0000
1011
1000
1101
0000
1000
0000
1111
0000
,
0000
0000
0010
0000
0100
0000
0011
1100
0011
0000
0010
0000
0100
0000
0010
0000
,
1001
0010
0101
0010
,
0101
0010
0110
0010
,
0101
0100
0110
0100
,
1010
0010
0110
0010
,
0101
0001
0011
0001
,
0101
0001
1001
1000
,
1010
1000
1001
1000
,
1100
1000
1011
1101
,
1011
1000
1001
1000
,
1010
0010
0110
0010
,
0101
0010
0110
0010
,
1010
0010
0110
0010
,
1001
0001
0101
0001
,
0011
0001
1001
1000
,
1010
1000
1001
1000
,
1011
1110
1011
1110
,
1011
0010
1110
0010
,
1011
0010
0111
0010
,
1101
0001
0111
0001
,
1101
0101
1011
0011
,
1001
1000
1110
1000
,
1011
1000
1110
1000
,
1011
1000
1110
1000
,
1011
0010
1101
1001
,
1011
0010
1101
0100
,
1110
0100
0111
0100
,
1011
1000
1110
1000
,
1101
0100
1110
0100
,
0111
0010
1110
0100
,
1101
0001
0111
0001
,
1101
1011
1101
1110
,
0111
1110
1011
0000
,
0000
0000
0120
0000
1031
0010
1001
0010
,
0101
2100
0000
3101
0010
0101
1010
0100
,
1010
0001
0102
0000
1103
0000
0101
0010
,
1010
0102
0000
0000
0000
0103
1010
0010
,
1001
0100
1111
0000
0010
0100
1010
0000
,
0101
0000
1010
0100
0010
0000
0110
0000
,
0010
0110
0010
1010
,
0010
0011
0010
0101
,
0100
1001
0010
1001
,
1000
0000
1001
0010
0100
0000
1010
0000
,
0010
1001
0100
1001
,
0010
0101
0010
1001
,
0110
0000
1001
0000
0010
0100
1001
0000
,
0010
0011
0010
0110
,
0010
1010
0010
1010
,
1000
1100
1000
1001
,
1000
0000
1100
0000
1000
1000
1100
0000
,
1000
1010
1000
1001
,
1000
1010
1011
1101
,
1011
0000
1101
0001
0010
0100
1001
0000
,
0100
0000
0010
0000
0010
0100
1010
0000
,
0001
1100
0001
1100
,
0101
1000
0101
0010
1100
0000
0110
0000
,
1000
0110
1000
0110
,
1001
0100
0011
0000
1001
0010
1100
0000
,
1000
0101
1000
0101
,
1001
0100
0101
0000
1001
0100
0101
0000
,
1000
0110
1000
0110
,
1010
0100
1001
0000
1010
0100
1001
0000
,
1001
0000
1001
0000
1000
1000
1101
0000
,
0100
0100
1101
0000
0010
0010
1011
0000
,
0010
0000
1001
0000
0001
0001
1011
0000
,
1111
1111
1111
1111
,
1111
0000
1111
0000
0001
0010
0100
1000
,
0100
0010
1001
1001
1001
1001
0000
1001
,
1000
0110
0000
1001
0001
0110
0000
0101
,
0010
1011
0000
1010
0100
1101
0000
1100
,
0010
0111
0000
0011
1000
1110
0000
1100
,
0010
1110
0000
0101
0010
1011
0000
1101
,
0100
1001
0000
1100
0001
1101
0000
0110
,
1000
1011
0000
0101
1000
1110
0000
1010
,
0100
0111
0000
1010
0100
0111
0000
1001
,
0010
1011
0000
1101
0000
1011
0000
0101
,
0010
1011
0000
1001
0010
1011
0000
1100
,
0001
0111
0000
1110
1000
0101
0000
1100
,
0100
1011
0000
1001
0010
0111
0000
1100
,
0001
0111
0000
0101
0010
1110
0000
0011
,
1000
1110
0000
1101
0001
1110
0000
0111
,
1000
1010
0000
1010
0100
1101
0000
0110
,
1000
1101
0000
1010
0001
1101
0000
1011
,
0000
1110
0000
0111
0000
1110
0000
1101
,
0100
1110
0000
1001
0001
1011
0000
1010
,
1000
1110
0000
1101
0100
1110
0000
0111
,
0001
1011
0000
0110
0100
1100
0000
1110
,
0000
0111
0000
1110
0000
0111
0000
1101
,
0100
1110
0000
1011
0001
1001
0000
1001
,
1000
1011
0000
0110
0010
1110
0000
1001
,
0001
0111
0000
1100
1000
1011
0000
1110
,
0100
1101
0000
1101
0000
0111
0000
0111
,
0010
1010
0000
1011
0001
1101
0000
0101
,
0001
1101
0000
1001
1000
1011
0000
1011
,
0010
1010
0000
1100
0100
1101
0000
0110
,
0100
0111
0000
1001
0001
1011
0000
0111
,
0010
1011
0000
1110
0100
1101
0000
1010
,
0010
0011
0000
1011
1000
1110
0000
1011
,
0000
1110
0000
0111
0000
1110
0000
1011
,
0000
1101
0000
1011
0000
0000
1211
0000
,
1302
0000
1010
0000
0100
0000
0000
1010
0000
0000
2013
0000
0000
0000
0000
0000
,
0000
3102
1010
0100
1010
2103
0000
0000
,
3012
1010
2013
0000
0100
3012
0000
0000
,
0000
1003
2010
0000
0001
3102
0000
0000
,
0000
1013
0020
0000
0101
1032
0000
0000
,
0000
2103
0101
0100
0101
0102
0000
0000
,
0000
3203
0000
0000
0000
1301
0110
1001
,
0110
1002
0000
1010
1023
0000
0000
0131
,
0010
1000
0010
0100
0010
0001
1000
0000
,
0010
0201
0000
0010
1000
0010
1302
1010
,
0100
0110
1000
0110
1000
0100
1010
0100
,
1000
2103
0010
0101
0010
0001
3012
0100
,
1010
0100
2103
0010
0101
0010
3021
0000
,
0101
2131
0000
0010
0101
0010
3111
0100
,
1001
0010
1101
1001
1011
0000
0110
0001
,
1000
0000
0000
0000
0000
0000
0001
0000
0000
1000
0000
0000
0001
0000
0000
1000
0000
0000
0001
0000
0000
0000
1000
0000
0000
0000
0001
0000
0000
0000
1000
0000
0000
0001
0000
0000
1000
0000
0000
0001
0000
0000
1000
0000
0000
0001
0000
0000
,
1000
0001
1000
0000
0000
0000
1001
0000
0110
0000
1001
0000
0000
0000
0110
0000
,
1001
0110
0000
1001
0110
1001
0000
1010
,
0101
1010
0000
0101
1010
0101
0000
0011
,
1100
0011
0000
1100
0011
1100
0000
0101
,
1000
0101
0000
0110
1000
0101
0000
1010
,
0001
0110
0000
1001
0100
0011
0000
1001
,
0010
1100
0000
0011
0100
1001
0000
1100
,
0010
1001
0000
1010
0101
1011
0000
1101
,
0000
1110
0000
0011
1100
1011
0000
1010
,
0101
1011
0000
1100
0011
1101
0000
0110
,
1001
1101
0000
0101
1010
1101
0000
1001
,
0110
1011
0000
0110
1001
1101
0000
1001
,
0110
1101
0000
0101
1010
1101
0000
1010
,
0101
1011
0000
1100
0011
1101
0000
0011
,
1100
1011
0000
1101
0000
1011
0000
0111
,
0000
1110
0000
0111
0000
1111
0000
0101
,
0000
1001
0010
0101
0010
1101
0100
1010
,
0100
1011
0001
0010
0100
1110
0001
0010
,
0100
0111
0001
1010
0100
1101
0010
0101
,
1000
1011
0010
1101
0100
1011
0010
1101
,
0001
1110
0001
0011
1100
0011
1000
0110
,
1001
0110
0001
1100
0010
1010
0001
1101
,
0010
1100
0011
1100
0001
1101
0100
1010
,
0100
1011
0100
0011
1000
0110
1001
0001
,
1010
0100
1001
1000
0011
1100
0001
1100
,
0001
0110
1001
0110
1000
1011
0100
0011
,
0100
1011
0100
0011
1100
0010
0010
1100
,
0011
0100
0011
1100
0010
1101
0001
0110
,
1000
1011
0100
1110
0001
1110
1000
0111
,
1000
0111
0001
1110
1000
0111
0001
1110
,
1000
0111
0001
1110
0000
1110
0000
0111
,
0000
0111
0000
1011
0000
1101
0000
1011
,
0000
0000
1121
0000
0130
0010
0100
0010
,
0100
0020
0000
0031
1000
0001
1000
0001
,
1000
0000
0002
0000
0103
0001
0100
0001
,
0100
0002
0000
2003
0000
3010
1000
0010
,
1000
0010
2000
0000
3010
0100
0010
0100
,
0010
0200
0000
0310
1000
0010
1000
0010
,
1000
0010
2000
0000
3002
0010
0103
1000
,
0100
0020
0000
0000
1031
1001
2002
0000
,
0000
3003
0000
0000
0000
0000
0000
0000
;

//---------------dance-solo - Copied from----------------
#NOTES:
     dance-solo:
     Copied from:
     Hard:
     18:
     1.000,1.000,1.000,0.230,0.035,1197.000,705.000,59.000,0.000,282.000:
000100
100000
000010
100000
010200
100001
010000
101300
,
100000
000010
100000
000010
201000
000101
010000
301001
,
000100
100000
001000
000001
002010
000000
103001
010010
,
000100
000001
100000
001001
100000
000100
100000
010010
,
100000
000010
100000
000001
100200
010001
100010
010301
,
001000
000100
001000
010000
200010
001000
000001
310010
,
001000
000010
100000
000010
020001
000000
130010
000100
,
100000
000100
100001
010000
001000
000010
100001
001000
,
010000
100000
010000
001000
000210
101000
000001
100310
,
000100
100000
000001
010000
200010
001100
010001
300110
,
001001
110000
001001
100010
002100
000000
103010
011000
,
000110
110000
000011
110000
000110
110000
000011
011000
,
010100
100001
001010
101000
120100
001001
000110
130001
,
001100
010010
101000
010001
102100
000110
010001
103100
,
000000
020100
000000
130100
100101
010000
001000
000100
,
000010
000001
000010
000100
001000
101101
000000
010010
,
000000
100001
000000
110011
101101
110011
000000
110000
,
000011
011000
000000
100100
000000
000110
110000
000011
,
000000
100010
000000
011000
000000
000101
000000
001100
,
000011
110000
001100
100010
000000
100100
010001
100100
,
000000
100001
000000
011000
000000
000101
000000
001100
,
010001
100100
000000
100100
010001
100010
001100
100001
,
000000
010100
000000
101000
000000
010100
000000
110000
,
000001
010100
000000
100001
000000
100100
001001
100010
,
000000
010001
000000
101000
000000
100110
000000
001000
,
000000
010001
000000
010000
000000
100100
000000
100001
,
000000
100100
000000
100000
000000
100001
000000
001000
,
000000
011000
000000
001000
000000
010001
000000
000100
,
000000
100100
000000
000100
000000
000101
110000
000101
,
011000
100001
000000
100100
000000
101000
010001
100100
,
000000
011000
000000
001001
000000
100100
000000
010000
,
000000
100001
000000
001000
000000
100010
000000
000010
,
000000
100001
000000
002000
000000
100001
000000
103100
,
000001
001100
000000
100000
000000
100100
000001
011000
,
100010
000000
100000
100000
000000
010001
000000
010000
,
000000
100010
000000
100000
000000
010010
000000
100000
,
000000
011000
000000
000100
000000
100011
000000
000100
,
000000
011000
000000
100000
000000
101100
010001
100100
,
011000
000011
000000
001000
000000
100100
000101
100100
,
000000
011000
000000
000110
000000
110000
000000
001001
,
000000
100200
000000
001001
000000
010000
000000
100301
,
010000
001010
000000
100100
000000
100001
001000
000100
,
011000
100101
000000
110000
001100
001001
000000
010000
,
000000
100010
000000
001000
000000
100001
000000
010000
,
000000
100100
000000
000010
000000
101000
000000
000010
,
000000
110000
000000
000001
000000
101101
010010
100100
,
010001
000000
100010
010100
110000
100001
000000
100100
,
000000
010001
000000
200200
000000
310301
001000
000010
,
000100
001000
010000
100000
010000
001000
000100
001000
,
010000
000000
100000
000000
001000
000000
000100
000010
100001
000000
010000
000000
001000
000100
100011
000000
,
010000
000000
000100
000000
010000
000000
000001
000010
100100
000000
010000
000000
001000
000000
000100
000000
,
000010
000001
000100
201000
000010
010000
300201
010000
,
000001
000000
001300
000000
200100
000000
000100
000100
000100
000100
300101
000000
010100
000000
000001
000001
,
100001
000000
100000
000000
100100
000000
100000
100000
100001
000000
100000
000000
100100
000000
000100
000000
,
100100
000000
000100
000000
000101
000000
000100
000000
100100
000100
110101
000000
000010
000000
111100
000000
,
000000
000000
001000
000000
010000
000000
001100
110000
001001
000000
001000
000000
010000
000000
001000
000000
,
100100
001000
010100
001000
,
010100
001000
011000
001000
,
010100
010000
011000
010000
,
101000
001000
011000
001000
,
010100
000100
001100
000100
,
010100
000100
100100
100000
,
101000
100000
100100
100000
,
110000
100000
101100
110100
,
101100
100000
100100
100000
,
101000
001000
011000
001000
,
010100
001000
011000
001000
,
101000
001000
011000
001000
,
100100
000100
010100
000100
,
001100
000100
100100
100000
,
101000
100000
100100
100000
,
101100
111000
101100
111000
,
101100
001000
111000
001000
,
101100
001000
011100
001000
,
110100
000100
011100
000100
,
110100
010100
101100
001100
,
100100
100000
111000
100000
,
101100
100000
111000
100000
,
101100
100000
111000
100000
,
101100
001000
110100
100100
,
101100
001000
110100
010000
,
111000
010000
011100
010000
,
101100
100000
111000
100000
,
110100
010000
111000
010000
,
011100
001000
111000
010000
,
110100
000100
011100
000100
,
110100
101100
110100
111000
,
011100
111000
101100
000000
,
000000
000000
012000
000000
103100
001000
100100
001000
,
010100
210000
000000
310100
001000
010100
101000
010000
,
101000
000100
010200
000000
110300
000000
010100
001000
,
101000
010200
000000
000000
000000
010300
101000
001000
,
100100
010000
111100
000000
001000
010000
101000
000000
,
010100
000000
101000
010000
001000
000000
011000
000000
,
001000
011000
001000
101000
,
001000
001100
001000
010100
,
010000
100100
001000
100100
,
100000
000000
100100
001000
010000
000000
101000
000000
,
001000
100100
010000
100100
,
001000
010100
001000
100100
,
011000
000000
100100
000000
001000
010000
100100
000000
,
001000
001100
001000
011000
,
001000
101000
001000
101000
,
100000
110000
100000
100100
,
100000
000000
110000
000000
100000
100000
110000
000000
,
100000
101000
100000
100100
,
100000
101000
101100
110100
,
101100
000000
110100
000100
001000
010000
100100
000000
,
010000
000000
001000
000000
001000
010000
101000
000000
,
000100
110000
000100
110000
,
010100
100000
010100
001000
110000
000000
011000
000000
,
100000
011000
100000
011000
,
100100
010000
001100
000000
100100
001000
110000
000000
,
100000
010100
100000
010100
,
100100
010000
010100
000000
100100
010000
010100
000000
,
100000
011000
100000
011000
,
101000
010000
100100
000000
101000
010000
100100
000000
,
100100
000000
100100
000000
100000
100000
110100
000000
,
010000
010000
110100
000000
001000
001000
101100
000000
,
001000
000000
100100
000000
000100
000100
101100
000000
,
111100
111100
111100
111100
,
111100
000000
111100
000000
000100
001000
010000
100000
,
010000
001000
100100
100100
100100
100100
000000
100100
,
100000
011000
000000
100100
000100
011000
000000
010100
,
001000
101100
000000
101000
010000
110100
000000
110000
,
001000
011100
000000
001100
100000
111000
000000
110000
,
001000
111000
000000
010100
001000
101100
000000
110100
,
010000
100100
000000
110000
000100
110100
000000
011000
,
100000
101100
000000
010100
100000
111000
000000
101000
,
010000
011100
000000
101000
010000
011100
000000
100100
,
001000
101100
000000
110100
000000
101100
000000
010100
,
001000
101100
000000
100100
001000
101100
000000
110000
,
000100
011100
000000
111000
100000
010100
000000
110000
,
010000
101100
000000
100100
001000
011100
000000
110000
,
000100
011100
000000
010100
001000
111000
000000
001100
,
100000
111000
000000
110100
000100
111000
000000
011100
,
100000
101000
000000
101000
010000
110100
000000
011000
,
100000
110100
000000
101000
000100
110100
000000
101100
,
000000
111000
000000
011100
000000
111000
000000
110100
,
010000
111000
000000
100100
000100
101100
000000
101000
,
100000
111000
000000
110100
010000
111000
000000
011100
,
000100
101100
000000
011000
010000
110000
000000
111000
,
000000
011100
000000
111000
000000
011100
000000
110100
,
010000
111000
000000
101100
000100
100100
000000
100100
,
100000
101100
000000
011000
001000
111000
000000
100100
,
000100
011100
000000
110000
100000
101100
000000
111000
,
010000
110100
000000
110100
000000
011100
000000
011100
,
001000
101000
000000
101100
000100
110100
000000
010100
,
000100
110100
000000
100100
100000
101100
000000
101100
,
001000
101000
000000
110000
010000
110100
000000
011000
,
010000
011100
000000
100100
000100
101100
000000
011100
,
001000
101100
000000
111000
010000
110100
000000
101000
,
001000
001100
000000
101100
100000
111000
000000
101100
,
000000
111000
000000
011100
000000
111000
000000
101100
,
000000
110100
000000
101100
000000
000000
121100
000000
,
130200
000000
101000
000000
010000
000000
000000
101000
000000
000000
201300
000000
000000
000000
000000
000000
,
000000
310200
101000
010000
101000
210300
000000
000000
,
301200
101000
201300
000000
010000
301200
000000
000000
,
000000
100300
201000
000000
000100
310200
000000
000000
,
000000
101300
002000
000000
010100
103200
000000
000000
,
000000
210300
010100
010000
010100
010200
000000
000000
,
000000
320300
000000
000000
000000
130100
011000
100100
,
011000
100200
000000
101000
102300
000000
000000
013100
,
001000
100000
001000
010000
001000
000100
100000
000000
,
001000
020100
000000
001000
100000
001000
130200
101000
,
010000
011000
100000
011000
100000
010000
101000
010000
,
100000
210300
001000
010100
001000
000100
301200
010000
,
101000
010000
210300
001000
010100
001000
302100
000000
,
010100
213100
000000
001000
010100
001000
311100
010000
,
100100
001000
110100
100100
101100
000000
011000
000100
,
100000
000000
000000
000000
000000
000000
000100
000000
000000
100000
000000
000000
000100
000000
000000
100000
000000
000000
000100
000000
000000
000000
100000
000000
000000
000000
000100
000000
000000
000000
100000
000000
000000
000100
000000
000000
100000
000000
000000
000100
000000
000000
100000
000000
000000
000100
000000
000000
,
100000
000100
100000
000000
000000
000000
100100
000000
011000
000000
100100
000000
000000
000000
011000
000000
,
100100
011000
000000
100100
011000
100100
000000
101000
,
010100
101000
000000
010100
101000
010100
000000
001100
,
110000
001100
000000
110000
001100
110000
000000
010100
,
100000
010100
000000
011000
100000
010100
000000
101000
,
000100
011000
000000
100100
010000
001100
000000
100100
,
001000
110000
000000
001100
010000
100100
000000
110000
,
001000
100100
000000
101000
010100
101100
000000
110100
,
000000
111000
000000
001100
110000
101100
000000
101000
,
010100
101100
000000
110000
001100
110100
000000
011000
,
100100
110100
000000
010100
101000
110100
000000
100100
,
011000
101100
000000
011000
100100
110100
000000
100100
,
011000
110100
000000
010100
101000
110100
000000
101000
,
010100
101100
000000
110000
001100
110100
000000
001100
,
110000
101100
000000
110100
000000
101100
000000
011100
,
000000
111000
000000
011100
000000
111100
000000
010100
,
000000
100100
001000
010100
001000
110100
010000
101000
,
010000
101100
000100
001000
010000
111000
000100
001000
,
010000
011100
000100
101000
010000
110100
001000
010100
,
100000
101100
001000
110100
010000
101100
001000
110100
,
000100
111000
000100
001100
110000
001100
100000
011000
,
100100
011000
000100
110000
001000
101000
000100
110100
,
001000
110000
001100
110000
000100
110100
010000
101000
,
010000
101100
010000
001100
100000
011000
100100
000100
,
101000
010000
100100
100000
001100
110000
000100
110000
,
000100
011000
100100
011000
100000
101100
010000
001100
,
010000
101100
010000
001100
110000
001000
001000
110000
,
001100
010000
001100
110000
001000
110100
000100
011000
,
100000
101100
010000
111000
000100
111000
100000
011100
,
100000
011100
000100
111000
100000
011100
000100
111000
,
100000
011100
000100
111000
000000
111000
000000
011100
,
000000
011100
000000
101100
000000
110100
000000
101100
,
000000
000000
112100
000000
013000
001000
010000
001000
,
010000
002000
000000
003100
100000
000100
100000
000100
,
100000
000000
000200
000000
010300
000100
010000
000100
,
010000
000200
000000
200300
000000
301000
100000
001000
,
100000
001000
200000
000000
301000
010000
001000
010000
,
001000
020000
000000
031000
100000
001000
100000
001000
,
100000
001000
200000
000000
300200
001000
010300
100000
,
010000
002000
000000
000000
103100
100100
200200
000000
,
000000
300300
000000
000000
000000
000000
000000
000000
;
